osu file format v14

[General]
AudioFilename: Ray of Bullet.mp3
AudioLeadIn: 1500
PreviewTime: 50346
Countdown: 0
SampleSet: None
StackLeniency: 0.7
Mode: 3
LetterboxInBreaks: 0
WidescreenStoryboard: 0

[Editor]
DistanceSpacing: 1.3
BeatDivisor: 4
GridSize: 32
TimelineZoom: 2

[Metadata]
Title:Ray of Bullet (TV Size)
TitleUnicode:Ray of Bullet (TV Size)
Artist:Rina Hidaka & Manami Numakura
ArtistUnicode:Rina Hidaka & Manami Numakura
Creator:Yuutosan
Version:Insane
Source:銃皇無尽のファフニール
Tags:Ending ED Theme of Juuou Mujin no Fafnir Unlimited Fafnir Iris Frayja Mitsuki Mononobe
BeatmapID:595613
BeatmapSetID:260765

[Difficulty]
HPDrainRate:9
CircleSize:7
OverallDifficulty:9
ApproachRate:5
SliderMultiplier:1.4
SliderTickRate:1

[Events]
//Background and Video events
Video,406,"video.avi",0,0
0,0,"BG.jpg",0,0
//Break Periods
//Storyboard Layer 0 (Background)
//Storyboard Layer 1 (Fail)
//Storyboard Layer 2 (Pass)
//Storyboard Layer 3 (Foreground)
//Storyboard Sound Samples

[TimingPoints]
1753,324.324324324324,4,2,0,15,1,0
1753,-117.647058823529,4,2,0,15,0,0
2401,-83.3333333333333,4,2,0,15,0,0
2725,-142.857142857143,4,2,0,15,0,0
2807,-117.647058823529,4,2,0,15,0,0
4996,-83.3333333333333,4,2,0,15,0,0
5320,-142.857142857143,4,2,0,15,0,0
5401,-117.647058823529,4,2,0,15,0,0
6293,-105.263157894737,4,2,0,15,0,0
6939,-100,4,2,0,15,0,0
8077,-66.6666666666667,4,2,0,15,0,0
8320,-200,4,2,0,15,0,0
8482,-142.857142857143,4,2,0,15,0,0
8563,-100,4,2,0,15,0,0
8725,-66.6666666666667,4,2,0,15,0,0
8969,-200,4,2,0,15,0,0
9131,-142.857142857143,4,2,0,15,0,0
9212,-100,4,2,0,15,0,0
9536,-100,4,2,0,15,0,1
17320,-83.3333333333333,4,2,0,15,0,1
17401,-200,4,2,0,15,0,1
17482,-50,4,2,0,15,0,1
17644,-200,4,2,0,15,0,1
17725,-142.857142857143,4,2,0,15,0,1
17807,-100,4,2,0,15,0,1
17969,-83.3333333333333,4,2,0,15,0,1
18009,-200,4,2,0,15,0,1
18050,-83.3333333333333,4,2,0,15,0,1
18090,-200,4,2,0,15,0,1
18131,-83.3333333333333,4,2,0,15,0,1
18212,-200,4,2,0,15,0,1
18293,-66.6666666666667,4,2,0,15,0,1
18374,-200,4,2,0,15,0,1
18455,-50,4,2,0,15,0,1
18617,-333.333333333334,4,2,0,15,0,1
18698,-142.857142857143,4,2,0,15,0,1
18780,-83.3333333333333,4,2,0,15,0,1
18861,-142.857142857143,4,2,0,15,0,1
18942,-100,4,2,0,15,0,1
19104,-83.3333333333333,4,2,0,15,0,1
19225,-200,4,2,0,15,0,1
19266,-142.857142857143,4,2,0,15,0,1
19347,-100,4,2,0,15,0,1
19428,-83.3333333333333,4,2,0,15,0,1
19590,-200,4,2,0,15,0,1
19671,-142.857142857143,4,2,0,15,0,1
19752,-100,4,2,0,15,0,1
19915,-100,4,2,0,15,0,0
36455,-66.6666666666667,4,2,0,15,0,0
36780,-200,4,2,0,15,0,0
36942,-142.857142857143,4,2,0,15,0,0
37023,-100,4,2,0,15,0,0
37104,-66.6666666666667,4,2,0,15,0,0
37266,-200,4,2,0,15,0,0
37347,-142.857142857143,4,2,0,15,0,0
37428,-250,4,2,0,15,0,0
37590,-66.6666666666667,4,2,0,15,0,0
37671,-142.857142857143,4,2,0,15,0,0
37752,-100,4,2,0,15,0,0
39374,-83.3333333333333,4,2,0,15,0,0
39455,-200,4,2,0,15,0,0
39536,-83.3333333333333,4,2,0,15,0,0
39780,-142.857142857143,4,2,0,15,0,0
39861,-83.3333333333333,4,2,0,15,0,0
40104,-142.857142857143,4,2,0,15,0,0
40185,-83.3333333333333,4,2,0,15,0,0
40347,-200,4,2,0,15,0,0
40428,-142.857142857143,4,2,0,15,0,0
40509,-100,4,2,0,15,0,0
40671,-66.6666666666667,4,2,0,15,0,0
40834,-333.333333333333,4,2,0,15,0,0
40915,-142.857142857143,4,2,0,15,0,0
40996,-66.6666666666667,4,2,0,15,0,0
41158,-333.333333333333,4,2,0,15,0,0
41239,-142.857142857143,4,2,0,15,0,0
41320,-66.6666666666667,4,2,0,15,0,0
41482,-333.333333333333,4,2,0,15,0,0
41563,-142.857142857143,4,2,0,15,0,0
41644,-83.3333333333333,4,2,0,15,0,0
41725,-200,4,2,0,15,0,0
41807,-66.6666666666667,4,2,0,15,0,0
41969,-333.333333333333,4,2,0,15,0,0
42050,-142.857142857143,4,2,0,15,0,0
42131,-66.6666666666667,4,2,0,15,0,0
42293,-333.333333333333,4,2,0,15,0,0
42374,-142.857142857143,4,2,0,15,0,0
42455,-83.3333333333333,4,2,0,15,0,0
42536,-200,4,2,0,15,0,0
42617,-66.6666666666667,4,2,0,15,0,0
42780,-333.333333333333,4,2,0,15,0,0
42861,-142.857142857143,4,2,0,15,0,0
42942,-66.6666666666667,4,2,0,15,0,0
43104,-333.333333333333,4,2,0,15,0,0
43185,-142.857142857143,4,2,0,15,0,0
43266,-66.6666666666667,4,2,0,15,0,0
43428,-333.333333333333,4,2,0,15,0,0
43509,-142.857142857143,4,2,0,15,0,0
43590,-66.6666666666667,4,2,0,15,0,0
43752,-333.333333333333,4,2,0,15,0,0
43834,-142.857142857143,4,2,0,15,0,0
43915,-66.6666666666667,4,2,0,15,0,0
44077,-333.333333333333,4,2,0,15,0,0
44158,-142.857142857143,4,2,0,15,0,0
44239,-83.3333333333333,4,2,0,15,0,0
44320,-200,4,2,0,15,0,0
44401,-66.6666666666667,4,2,0,15,0,0
44563,-333.333333333333,4,2,0,15,0,0
44644,-142.857142857143,4,2,0,15,0,0
44725,-66.6666666666667,4,2,0,15,0,0
44888,-333.333333333333,4,2,0,15,0,0
44969,-142.857142857143,4,2,0,15,0,0
45050,-83.3333333333333,4,2,0,15,0,0
45131,-200,4,2,0,15,0,0
45212,-66.6666666666667,4,2,0,15,0,0
45374,-333.333333333333,4,2,0,15,0,0
45455,-142.857142857143,4,2,0,15,0,0
45536,-66.6666666666667,4,2,0,15,0,0
45698,-333.333333333333,4,2,0,15,0,0
45780,-142.857142857143,4,2,0,15,0,0
45861,-100,4,2,0,15,0,0
46834,-117.647058823529,4,2,0,15,0,0
48131,-100,4,2,0,15,0,0
49752,-142.857142857143,4,2,0,15,0,0
51050,-100,4,2,0,15,0,1
62239,-333.333333333333,4,2,0,15,0,1
62320,-66.6666666666667,4,2,0,15,0,1
62361,-142.857142857143,4,2,0,15,0,1
62401,-100,4,2,0,15,0,1
64023,-100,4,2,0,15,0,0
66617,-100,4,2,0,15,0,1
77644,-333.333333333333,4,2,0,15,0,1
77969,-100,4,2,0,15,0,1
79428,-66.6666666666667,4,2,0,15,0,1
79509,-142.857142857143,4,2,0,15,0,1
79590,-100,4,2,0,15,0,1
80239,-333.333333333333,4,2,0,15,0,1
80401,-66.6666666666667,4,2,0,15,0,1
80482,-142.857142857143,4,2,0,15,0,1
80563,-100,4,2,0,15,0,1
84617,-100,4,2,0,15,0,0

[HitObjects]
329,192,1753,128,0,2077:0:0:0:0:
36,192,1753,128,0,2401:0:0:0:0:
182,192,1753,128,0,2077:0:0:0:0:
475,192,1753,128,0,2401:0:0:0:0:
256,192,2239,1,0,0:0:0:0:
182,192,2401,1,0,0:0:0:0:
329,192,2401,1,0,0:0:0:0:
329,192,2725,128,0,4185:0:0:0:0:
182,192,2725,128,0,4185:0:0:0:0:
36,192,2725,128,0,4185:0:0:0:0:
475,192,2725,128,0,4185:0:0:0:0:
402,192,2725,128,0,3374:0:0:0:0:
109,192,2725,128,0,3374:0:0:0:0:
256,192,4347,128,0,4671:0:0:0:0:
109,192,4347,128,0,4996:0:0:0:0:
402,192,4347,128,0,4996:0:0:0:0:
256,192,4834,1,0,0:0:0:0:
36,192,4996,1,0,0:0:0:0:
475,192,4996,1,0,0:0:0:0:
329,192,5320,128,0,5969:0:0:0:0:
182,192,5320,128,0,5969:0:0:0:0:
36,192,5320,128,0,6942:0:0:0:0:
475,192,5320,128,0,6942:0:0:0:0:
256,192,5807,1,0,0:0:0:0:
109,192,5969,1,0,0:0:0:0:
402,192,5969,1,0,0:0:0:0:
182,192,6293,1,0,0:0:0:0:
109,192,6293,1,0,0:0:0:0:
329,192,6374,1,0,0:0:0:0:
402,192,6374,1,0,0:0:0:0:
109,192,6455,1,0,0:0:0:0:
182,192,6455,1,0,0:0:0:0:
329,192,6617,1,0,0:0:0:0:
402,192,6617,1,0,0:0:0:0:
109,192,6780,1,0,0:0:0:0:
182,192,6780,1,0,0:0:0:0:
256,192,6942,128,0,7915:0:0:0:0:
402,192,6942,1,0,0:0:0:0:
329,192,6942,1,0,0:0:0:0:
182,192,7104,1,0,0:0:0:0:
475,192,7266,1,0,0:0:0:0:
109,192,7428,1,0,0:0:0:0:
36,192,7428,1,0,0:0:0:0:
402,192,7590,1,0,0:0:0:0:
475,192,7590,1,0,0:0:0:0:
109,192,7752,1,0,0:0:0:0:
36,192,7752,1,0,0:0:0:0:
329,192,7915,1,0,0:0:0:0:
402,192,7915,1,0,0:0:0:0:
475,192,8077,128,0,8563:0:0:0:0:
402,192,8077,1,0,0:0:0:0:
329,192,8077,1,0,0:0:0:0:
109,192,8077,1,0,0:0:0:0:
182,192,8077,1,0,0:0:0:0:
36,192,8077,128,0,8563:0:0:0:0:
109,192,8563,1,0,0:0:0:0:
182,192,8563,1,0,0:0:0:0:
402,192,8563,1,0,0:0:0:0:
329,192,8563,1,0,0:0:0:0:
109,192,8725,128,0,9536:0:0:0:0:
402,192,8725,128,0,9212:0:0:0:0:
182,192,8725,1,0,0:0:0:0:
329,192,8725,1,0,0:0:0:0:
36,192,8725,1,0,0:0:0:0:
475,192,8725,1,0,0:0:0:0:
475,192,9212,1,0,0:0:0:0:
36,192,9212,1,0,0:0:0:0:
329,192,9374,1,0,0:0:0:0:
256,192,9455,1,0,0:0:0:0:
402,192,9536,1,0,0:0:0:0:
475,192,9536,1,0,0:0:0:0:
36,192,9536,128,0,9698:0:0:0:0:
182,192,9536,1,0,0:0:0:0:
256,192,9698,1,0,0:0:0:0:
329,192,9698,128,0,9861:0:0:0:0:
109,192,9861,1,8,0:0:0:0:
475,192,9861,1,0,0:0:0:0:
36,192,9861,1,0,0:0:0:0:
329,192,10023,1,0,0:0:0:0:
36,192,10185,128,0,10347:0:0:0:0:
256,192,10185,1,0,0:0:0:0:
329,192,10347,128,0,10509:0:0:0:0:
475,192,10347,1,0,0:0:0:0:
109,192,10509,1,8,0:0:0:0:
402,192,10509,1,0,0:0:0:0:
36,192,10509,1,0,0:0:0:0:
182,192,10671,128,0,10834:0:0:0:0:
329,192,10671,1,0,0:0:0:0:
256,192,10834,128,0,12131:0:0:0:0:
36,192,10834,1,0,0:0:0:0:
475,192,10834,128,0,10996:0:0:0:0:
109,192,10996,1,0,0:0:0:0:
36,192,11158,1,8,0:0:0:0:
475,192,11158,1,0,0:0:0:0:
402,192,11158,128,0,11320:0:0:0:0:
182,192,11320,128,0,11482:0:0:0:0:
475,192,11482,128,0,12131:0:0:0:0:
36,192,11482,1,0,0:0:0:0:
329,192,11482,1,0,0:0:0:0:
109,192,11644,128,0,11807:0:0:0:0:
402,192,11807,1,0,0:0:0:0:
329,192,11807,1,0,0:0:0:0:
36,192,11807,128,8,11969:0:0:0:0:
182,192,11969,1,0,0:0:0:0:
402,192,12131,1,0,0:0:0:0:
329,192,12131,128,0,12780:0:0:0:0:
109,192,12131,128,0,12293:0:0:0:0:
182,192,12293,128,0,12455:0:0:0:0:
475,192,12455,1,0,0:0:0:0:
256,192,12455,1,0,0:0:0:0:
36,192,12455,1,8,0:0:0:0:
109,192,12617,128,0,12780:0:0:0:0:
182,192,12780,128,0,13428:0:0:0:0:
36,192,12780,1,0,0:0:0:0:
402,192,12780,128,0,12942:0:0:0:0:
475,192,12942,1,0,0:0:0:0:
256,192,13104,1,0,0:0:0:0:
36,192,13104,1,8,0:0:0:0:
329,192,13104,128,0,13266:0:0:0:0:
475,192,13266,128,0,13428:0:0:0:0:
36,192,13428,128,0,14077:0:0:0:0:
402,192,13428,1,0,0:0:0:0:
109,192,13428,1,0,0:0:0:0:
256,192,13590,128,0,13752:0:0:0:0:
475,192,13752,1,0,0:0:0:0:
182,192,13752,1,8,0:0:0:0:
329,192,13752,128,0,13915:0:0:0:0:
402,192,13915,1,0,0:0:0:0:
109,192,14077,128,0,14725:0:0:0:0:
475,192,14077,1,0,0:0:0:0:
182,192,14077,128,0,14239:0:0:0:0:
256,192,14239,128,0,14401:0:0:0:0:
36,192,14401,1,0,0:0:0:0:
402,192,14401,1,8,0:0:0:0:
475,192,14401,1,0,0:0:0:0:
256,192,14563,128,0,14725:0:0:0:0:
36,192,14725,1,0,0:0:0:0:
475,192,14725,1,0,0:0:0:0:
402,192,14725,128,0,15374:0:0:0:0:
329,192,14725,128,0,14888:0:0:0:0:
182,192,14888,1,0,0:0:0:0:
36,192,15050,1,8,0:0:0:0:
109,192,15050,1,0,0:0:0:0:
182,192,15050,128,0,15212:0:0:0:0:
329,192,15212,128,0,15374:0:0:0:0:
109,192,15374,128,0,16023:0:0:0:0:
475,192,15374,1,0,0:0:0:0:
36,192,15374,1,0,0:0:0:0:
182,192,15536,128,0,15698:0:0:0:0:
36,192,15698,1,0,0:0:0:0:
475,192,15698,1,0,0:0:0:0:
329,192,15698,128,8,15861:0:0:0:0:
256,192,15861,1,0,0:0:0:0:
329,192,16023,128,0,16671:0:0:0:0:
475,192,16023,128,0,16185:0:0:0:0:
182,192,16185,128,0,16347:0:0:0:0:
256,192,16347,1,0,0:0:0:0:
475,192,16347,1,0,0:0:0:0:
36,192,16347,1,8,0:0:0:0:
109,192,16509,128,0,16671:0:0:0:0:
36,192,16671,128,0,17320:0:0:0:0:
475,192,16671,128,0,16834:0:0:0:0:
256,192,16834,1,0,0:0:0:0:
475,192,16996,1,0,0:0:0:0:
109,192,16996,1,0,0:0:0:0:
182,192,16996,128,8,17158:0:0:0:0:
256,192,17158,128,0,17320:0:0:0:0:
475,192,17320,1,0,0:0:0:0:
109,192,17320,1,0,0:0:0:0:
329,192,17320,1,0,0:0:0:0:
36,192,17482,1,0,0:0:0:0:
402,192,17482,1,0,0:0:0:0:
256,192,17482,1,0,0:0:0:0:
256,192,17807,1,0,0:0:0:0:
329,192,17969,1,0,0:0:0:0:
182,192,17969,1,0,0:0:0:0:
36,192,18050,1,0,0:0:0:0:
475,192,18050,1,0,0:0:0:0:
109,192,18131,1,0,0:0:0:0:
402,192,18131,1,0,0:0:0:0:
256,192,18131,1,0,0:0:0:0:
36,192,18293,1,0,0:0:0:0:
475,192,18293,1,0,0:0:0:0:
256,192,18293,1,0,0:0:0:0:
109,192,18455,1,0,0:0:0:0:
182,192,18455,1,0,0:0:0:0:
329,192,18455,1,0,0:0:0:0:
402,192,18455,1,4,0:0:0:0:
109,192,18780,1,0,0:0:0:0:
402,192,18780,1,0,0:0:0:0:
36,192,18942,1,0,0:0:0:0:
475,192,18942,1,0,0:0:0:0:
256,192,19104,128,0,19347:0:0:0:0:
109,192,19104,128,0,19347:0:0:0:0:
402,192,19104,128,0,19347:0:0:0:0:
36,192,19428,128,0,19915:0:0:0:0:
256,192,19428,128,0,19752:0:0:0:0:
475,192,19428,128,0,19915:0:0:0:0:
402,192,19752,1,0,0:0:0:0:
109,192,19752,1,0,0:0:0:0:
402,192,19915,1,0,0:0:0:0:
109,192,19915,1,0,0:0:0:0:
256,192,19915,1,0,0:0:0:0:
36,192,20239,1,0,0:0:0:0:
182,192,20239,1,8,0:0:0:0:
475,192,20239,1,0,0:0:0:0:
329,192,20401,1,0,0:0:0:0:
109,192,20563,1,0,0:0:0:0:
256,192,20563,1,0,0:0:0:0:
402,192,20725,1,0,0:0:0:0:
182,192,20888,1,8,0:0:0:0:
475,192,20888,1,0,0:0:0:0:
36,192,20888,1,0,0:0:0:0:
329,192,21050,1,0,0:0:0:0:
109,192,21212,1,0,0:0:0:0:
402,192,21212,1,0,0:0:0:0:
329,192,21374,1,0,0:0:0:0:
36,192,21536,1,0,0:0:0:0:
475,192,21536,1,0,0:0:0:0:
182,192,21536,1,8,0:0:0:0:
109,192,21698,1,0,0:0:0:0:
36,192,21861,128,0,22185:0:0:0:0:
256,192,21861,1,0,0:0:0:0:
475,192,21861,128,0,22185:0:0:0:0:
182,192,22023,128,0,22185:0:0:0:0:
329,192,22023,128,0,22185:0:0:0:0:
109,192,22185,1,0,0:0:0:0:
402,192,22185,1,0,0:0:0:0:
256,192,22185,1,8,0:0:0:0:
329,192,22347,1,0,0:0:0:0:
109,192,22509,1,0,0:0:0:0:
256,192,22509,1,0,0:0:0:0:
402,192,22671,1,0,0:0:0:0:
36,192,22834,1,0,0:0:0:0:
256,192,22834,1,8,0:0:0:0:
475,192,22834,1,0,0:0:0:0:
109,192,22996,1,0,0:0:0:0:
329,192,23158,1,0,0:0:0:0:
36,192,23158,1,0,0:0:0:0:
182,192,23320,1,0,0:0:0:0:
36,192,23482,1,0,0:0:0:0:
475,192,23482,1,0,0:0:0:0:
329,192,23482,1,8,0:0:0:0:
182,192,23644,1,0,0:0:0:0:
402,192,23807,1,0,0:0:0:0:
109,192,23807,1,0,0:0:0:0:
256,192,23969,128,0,24131:0:0:0:0:
475,192,24131,1,0,0:0:0:0:
36,192,24131,128,0,24293:0:0:0:0:
182,192,24131,1,8,0:0:0:0:
109,192,24131,128,0,24293:0:0:0:0:
402,192,24293,128,0,24455:0:0:0:0:
109,192,24455,128,0,24617:0:0:0:0:
329,192,24455,1,0,0:0:0:0:
182,192,24455,128,0,24617:0:0:0:0:
256,192,24617,128,0,24780:0:0:0:0:
109,192,24780,128,0,25104:0:0:0:0:
402,192,24780,128,0,24942:0:0:0:0:
36,192,24780,1,0,0:0:0:0:
475,192,24780,1,8,0:0:0:0:
256,192,24942,128,0,25104:0:0:0:0:
182,192,24942,1,8,0:0:0:0:
329,192,25023,1,8,0:0:0:0:
475,192,25104,1,0,0:0:0:0:
36,192,25104,128,0,25428:0:0:0:0:
402,192,25104,1,0,0:0:0:0:
182,192,25266,128,0,25428:0:0:0:0:
475,192,25428,128,0,26077:0:0:0:0:
402,192,25428,128,0,25590:0:0:0:0:
329,192,25428,1,0,0:0:0:0:
109,192,25428,1,8,0:0:0:0:
36,192,25590,128,0,26239:0:0:0:0:
256,192,25590,1,0,0:0:0:0:
182,192,25752,128,0,25915:0:0:0:0:
109,192,25752,1,0,0:0:0:0:
329,192,25915,128,0,26077:0:0:0:0:
402,192,25915,1,0,0:0:0:0:
256,192,26077,1,8,0:0:0:0:
109,192,26077,1,0,0:0:0:0:
475,192,26239,128,0,26401:0:0:0:0:
182,192,26239,128,0,26401:0:0:0:0:
402,192,26239,1,0,0:0:0:0:
36,192,26401,128,0,27698:0:0:0:0:
329,192,26401,128,0,26563:0:0:0:0:
109,192,26401,1,0,0:0:0:0:
475,192,26563,128,0,27698:0:0:0:0:
256,192,26563,1,0,0:0:0:0:
329,192,26725,128,0,26888:0:0:0:0:
109,192,26725,1,8,0:0:0:0:
402,192,26725,1,0,0:0:0:0:
182,192,26888,128,0,27050:0:0:0:0:
256,192,26888,1,0,0:0:0:0:
109,192,27050,1,0,0:0:0:0:
182,192,27212,128,0,27374:0:0:0:0:
402,192,27212,1,0,0:0:0:0:
329,192,27374,1,8,0:0:0:0:
109,192,27374,1,0,0:0:0:0:
256,192,27536,1,0,0:0:0:0:
109,192,27698,128,0,28996:0:0:0:0:
402,192,27698,1,0,0:0:0:0:
182,192,27861,128,0,28023:0:0:0:0:
256,192,27861,1,0,0:0:0:0:
329,192,28023,128,0,28185:0:0:0:0:
36,192,28023,1,8,0:0:0:0:
475,192,28023,1,0,0:0:0:0:
256,192,28185,1,0,0:0:0:0:
402,192,28185,128,0,28996:0:0:0:0:
36,192,28347,128,0,28509:0:0:0:0:
329,192,28347,1,0,0:0:0:0:
475,192,28509,128,0,28671:0:0:0:0:
256,192,28509,1,0,0:0:0:0:
182,192,28671,1,8,0:0:0:0:
36,192,28671,1,0,0:0:0:0:
329,192,28834,128,0,28996:0:0:0:0:
256,192,28834,1,0,0:0:0:0:
182,192,28996,128,0,29158:0:0:0:0:
36,192,28996,1,0,0:0:0:0:
402,192,29158,128,0,29969:0:0:0:0:
256,192,29158,1,0,0:0:0:0:
475,192,29320,128,0,29482:0:0:0:0:
329,192,29320,1,0,0:0:0:0:
109,192,29320,1,8,0:0:0:0:
36,192,29482,128,0,29644:0:0:0:0:
256,192,29482,1,8,0:0:0:0:
182,192,29563,1,8,0:0:0:0:
109,192,29563,1,0,0:0:0:0:
329,192,29644,1,8,0:0:0:0:
475,192,29644,1,0,0:0:0:0:
36,192,29807,128,0,29969:0:0:0:0:
109,192,29807,1,0,0:0:0:0:
182,192,29807,1,8,0:0:0:0:
475,192,29969,1,8,0:0:0:0:
329,192,29969,1,0,0:0:0:0:
182,192,30131,1,0,0:0:0:0:
109,192,30131,1,0,0:0:0:0:
36,192,30293,1,0,0:0:0:0:
256,192,30293,1,4,0:0:0:0:
402,192,30293,1,0,0:0:0:0:
475,192,30293,128,0,32888:0:0:0:0:
402,192,30455,1,0,0:0:0:0:
109,192,30617,1,0,0:0:0:0:
329,192,30617,1,0,0:0:0:0:
182,192,30617,1,8,0:0:0:0:
36,192,30780,1,0,0:0:0:0:
402,192,30942,1,0,0:0:0:0:
256,192,30942,1,0,0:0:0:0:
109,192,31104,1,0,0:0:0:0:
329,192,31266,1,0,0:0:0:0:
182,192,31266,1,8,0:0:0:0:
36,192,31266,1,0,0:0:0:0:
402,192,31428,1,0,0:0:0:0:
329,192,31469,1,0,0:0:0:0:
256,192,31509,1,0,0:0:0:0:
182,192,31550,1,0,0:0:0:0:
109,192,31590,1,0,0:0:0:0:
36,192,31590,1,0,0:0:0:0:
329,192,31752,1,0,0:0:0:0:
36,192,31915,1,0,0:0:0:0:
402,192,31915,1,0,0:0:0:0:
182,192,31915,1,8,0:0:0:0:
329,192,32077,1,0,0:0:0:0:
256,192,32239,1,0,0:0:0:0:
109,192,32239,128,0,32401:0:0:0:0:
402,192,32401,1,0,0:0:0:0:
329,192,32563,1,0,0:0:0:0:
36,192,32563,1,0,0:0:0:0:
182,192,32563,128,8,32725:0:0:0:0:
402,192,32725,1,0,0:0:0:0:
109,192,32888,128,0,34509:0:0:0:0:
329,192,32888,1,0,0:0:0:0:
36,192,32888,1,0,0:0:0:0:
256,192,33050,1,0,0:0:0:0:
475,192,33212,1,0,0:0:0:0:
329,192,33212,1,8,0:0:0:0:
36,192,33212,1,0,0:0:0:0:
182,192,33374,1,0,0:0:0:0:
402,192,33536,1,0,0:0:0:0:
256,192,33536,1,0,0:0:0:0:
36,192,33698,1,0,0:0:0:0:
182,192,33861,1,0,0:0:0:0:
475,192,33861,1,0,0:0:0:0:
329,192,33861,1,8,0:0:0:0:
256,192,34023,1,0,0:0:0:0:
36,192,34185,1,0,0:0:0:0:
402,192,34185,1,0,0:0:0:0:
256,192,34347,1,0,0:0:0:0:
475,192,34509,1,0,0:0:0:0:
36,192,34509,1,0,0:0:0:0:
182,192,34509,1,8,0:0:0:0:
402,192,34550,1,0,0:0:0:0:
329,192,34590,1,0,0:0:0:0:
256,192,34631,1,0,0:0:0:0:
182,192,34671,1,0,0:0:0:0:
109,192,34712,1,0,0:0:0:0:
36,192,34752,1,0,0:0:0:0:
475,192,34834,1,0,0:0:0:0:
402,192,34874,1,0,0:0:0:0:
329,192,34915,1,0,0:0:0:0:
256,192,34955,1,0,0:0:0:0:
182,192,34996,1,0,0:0:0:0:
109,192,35036,1,0,0:0:0:0:
36,192,35077,1,0,0:0:0:0:
256,192,35158,1,0,0:0:0:0:
329,192,35198,1,0,0:0:0:0:
402,192,35239,1,0,0:0:0:0:
475,192,35280,1,0,0:0:0:0:
36,192,35320,1,0,0:0:0:0:
109,192,35361,1,0,0:0:0:0:
182,192,35401,1,0,0:0:0:0:
256,192,35442,1,0,0:0:0:0:
329,192,35482,1,4,0:0:0:0:
402,192,35482,1,0,0:0:0:0:
36,192,35482,1,0,0:0:0:0:
475,192,35482,128,0,35725:0:0:0:0:
182,192,35644,1,0,0:0:0:0:
475,192,35807,128,0,36131:0:0:0:0:
36,192,35807,1,0,0:0:0:0:
256,192,35807,1,0,0:0:0:0:
402,192,35807,1,0,0:0:0:0:
109,192,35969,1,0,0:0:0:0:
36,192,36131,1,0,0:0:0:0:
329,192,36131,1,0,0:0:0:0:
256,192,36293,1,0,0:0:0:0:
36,192,36455,128,0,37428:0:0:0:0:
475,192,36455,128,0,37428:0:0:0:0:
182,192,36455,128,0,37023:0:0:0:0:
329,192,36455,128,0,37023:0:0:0:0:
109,192,36455,128,0,37023:0:0:0:0:
402,192,36455,128,4,37023:0:0:0:0:
182,192,37104,128,0,37428:0:0:0:0:
329,192,37104,128,0,37428:0:0:0:0:
109,192,37104,128,0,37428:0:0:0:0:
402,192,37104,128,0,37428:0:0:0:0:
109,192,37752,128,0,39374:0:0:0:0:
256,192,37752,128,0,39374:0:0:0:0:
402,192,37752,128,0,39374:0:0:0:0:
36,192,37752,1,0,0:0:0:0:
475,192,37752,1,4,0:0:0:0:
329,192,37915,1,0,0:0:0:0:
182,192,38077,1,0,0:0:0:0:
329,192,38077,1,0,0:0:0:0:
182,192,38239,1,0,0:0:0:0:
36,192,38401,1,8,0:0:0:0:
475,192,38401,1,0,0:0:0:0:
182,192,38563,1,0,0:0:0:0:
329,192,38725,1,0,0:0:0:0:
182,192,38725,1,0,0:0:0:0:
329,192,38888,1,0,0:0:0:0:
36,192,39050,1,8,0:0:0:0:
475,192,39050,1,0,0:0:0:0:
329,192,39212,1,0,0:0:0:0:
36,192,39374,1,0,0:0:0:0:
182,192,39374,1,4,0:0:0:0:
475,192,39374,1,0,0:0:0:0:
329,192,39374,1,0,0:0:0:0:
329,192,39536,1,0,0:0:0:0:
475,192,39536,1,0,0:0:0:0:
36,192,39536,1,0,0:0:0:0:
182,192,39536,1,0,0:0:0:0:
182,192,39861,128,0,40023:0:0:0:0:
475,192,39861,128,0,40023:0:0:0:0:
329,192,39861,1,0,0:0:0:0:
36,192,39861,1,0,0:0:0:0:
329,192,40185,128,0,40671:0:0:0:0:
36,192,40185,128,0,40671:0:0:0:0:
182,192,40185,1,0,0:0:0:0:
475,192,40185,1,0,0:0:0:0:
109,192,40509,1,0,0:0:0:0:
402,192,40509,1,0,0:0:0:0:
182,192,40590,1,0,0:0:0:0:
475,192,40590,1,0,0:0:0:0:
109,192,40671,1,0,0:0:0:0:
402,192,40671,1,0,0:0:0:0:
256,192,40671,1,12,0:0:0:0:
36,192,40996,1,0,0:0:0:0:
182,192,40996,1,8,0:0:0:0:
475,192,40996,1,0,0:0:0:0:
329,192,41320,1,8,0:0:0:0:
475,192,41320,1,0,0:0:0:0:
36,192,41320,1,0,0:0:0:0:
109,192,41644,1,0,0:0:0:0:
402,192,41644,1,8,0:0:0:0:
36,192,41807,1,0,0:0:0:0:
475,192,41807,1,0,0:0:0:0:
256,192,41807,1,8,0:0:0:0:
109,192,42131,1,0,0:0:0:0:
256,192,42131,1,8,0:0:0:0:
402,192,42131,1,0,0:0:0:0:
36,192,42455,1,0,0:0:0:0:
475,192,42455,1,0,0:0:0:0:
329,192,42455,1,8,0:0:0:0:
402,192,42617,1,0,0:0:0:0:
109,192,42617,1,0,0:0:0:0:
256,192,42617,1,8,0:0:0:0:
36,192,42942,1,0,0:0:0:0:
256,192,42942,1,8,0:0:0:0:
475,192,42942,1,0,0:0:0:0:
109,192,43266,1,0,0:0:0:0:
475,192,43266,1,0,0:0:0:0:
256,192,43266,1,8,0:0:0:0:
36,192,43590,1,0,0:0:0:0:
256,192,43590,1,8,0:0:0:0:
402,192,43590,1,0,0:0:0:0:
109,192,43915,1,0,0:0:0:0:
256,192,43915,1,8,0:0:0:0:
475,192,43915,1,0,0:0:0:0:
402,192,44239,1,0,0:0:0:0:
36,192,44239,1,0,0:0:0:0:
182,192,44239,1,8,0:0:0:0:
109,192,44401,1,0,0:0:0:0:
256,192,44401,1,8,0:0:0:0:
475,192,44401,1,0,0:0:0:0:
109,192,44725,1,0,0:0:0:0:
256,192,44725,1,8,0:0:0:0:
475,192,44725,1,0,0:0:0:0:
36,192,45050,1,0,0:0:0:0:
475,192,45050,1,0,0:0:0:0:
329,192,45050,1,8,0:0:0:0:
109,192,45212,1,0,0:0:0:0:
402,192,45212,1,0,0:0:0:0:
256,192,45212,1,8,0:0:0:0:
109,192,45536,1,0,0:0:0:0:
256,192,45536,1,8,0:0:0:0:
402,192,45536,1,0,0:0:0:0:
402,192,45861,128,0,46185:0:0:0:0:
36,192,45861,128,0,46347:0:0:0:0:
109,192,45861,128,8,46185:0:0:0:0:
475,192,45861,128,0,46347:0:0:0:0:
256,192,45861,128,0,47482:0:0:0:0:
182,192,46347,128,0,46834:0:0:0:0:
329,192,46347,128,0,46834:0:0:0:0:
109,192,46347,128,0,46671:0:0:0:0:
402,192,46347,128,0,46671:0:0:0:0:
36,192,46834,128,0,47320:0:0:0:0:
475,192,46834,128,8,47320:0:0:0:0:
109,192,46834,128,0,47482:0:0:0:0:
402,192,46834,128,0,47482:0:0:0:0:
36,192,47482,1,8,0:0:0:0:
475,192,47482,1,0,0:0:0:0:
182,192,47590,1,8,0:0:0:0:
402,192,47590,1,0,0:0:0:0:
475,192,47698,1,0,0:0:0:0:
36,192,47698,1,8,0:0:0:0:
329,192,47807,1,0,0:0:0:0:
182,192,47807,1,8,0:0:0:0:
109,192,47915,1,8,0:0:0:0:
402,192,47915,1,0,0:0:0:0:
256,192,48023,1,0,0:0:0:0:
36,192,48023,1,8,0:0:0:0:
109,192,48131,1,8,0:0:0:0:
475,192,48131,128,0,49590:0:0:0:0:
182,192,48131,128,0,48780:0:0:0:0:
402,192,48131,1,0,0:0:0:0:
329,192,48131,128,0,48780:0:0:0:0:
36,192,48780,128,0,49104:0:0:0:0:
402,192,48780,128,8,49104:0:0:0:0:
182,192,48942,128,0,49428:0:0:0:0:
329,192,48942,128,8,49428:0:0:0:0:
109,192,49104,128,0,49590:0:0:0:0:
402,192,49266,128,8,49752:0:0:0:0:
36,192,49266,128,0,49752:0:0:0:0:
256,192,49428,128,8,49752:0:0:0:0:
182,192,49590,128,0,49752:0:0:0:0:
329,192,49590,128,8,49752:0:0:0:0:
109,192,49752,128,0,50239:0:0:0:0:
475,192,49752,128,0,50239:0:0:0:0:
475,192,50401,1,0,0:0:0:0:
36,192,50401,1,0,0:0:0:0:
329,192,50442,1,0,0:0:0:0:
182,192,50442,1,0,0:0:0:0:
36,192,51050,128,0,53644:0:0:0:0:
475,192,51050,1,0,0:0:0:0:
329,192,51050,1,0,0:0:0:0:
182,192,51050,1,0,0:0:0:0:
109,192,51212,1,0,0:0:0:0:
182,192,51374,1,0,0:0:0:0:
475,192,51374,1,0,0:0:0:0:
329,192,51374,1,8,0:0:0:0:
402,192,51536,1,0,0:0:0:0:
256,192,51698,1,0,0:0:0:0:
109,192,51698,1,0,0:0:0:0:
329,192,51861,1,0,0:0:0:0:
256,192,52023,128,0,52347:0:0:0:0:
109,192,52023,1,0,0:0:0:0:
475,192,52023,1,0,0:0:0:0:
402,192,52023,1,8,0:0:0:0:
182,192,52185,1,0,0:0:0:0:
475,192,52347,128,0,52671:0:0:0:0:
109,192,52347,1,0,0:0:0:0:
402,192,52347,1,0,0:0:0:0:
329,192,52509,1,0,0:0:0:0:
402,192,52671,1,0,0:0:0:0:
109,192,52671,1,0,0:0:0:0:
182,192,52671,1,8,0:0:0:0:
256,192,52834,1,0,0:0:0:0:
109,192,52996,1,0,0:0:0:0:
329,192,52996,1,0,0:0:0:0:
182,192,53158,1,0,0:0:0:0:
475,192,53320,1,0,0:0:0:0:
109,192,53320,1,0,0:0:0:0:
329,192,53320,1,8,0:0:0:0:
182,192,53401,1,0,0:0:0:0:
329,192,53482,1,0,0:0:0:0:
182,192,53563,1,0,0:0:0:0:
402,192,53644,1,0,0:0:0:0:
109,192,53644,1,0,0:0:0:0:
475,192,53644,128,0,55915:0:0:0:0:
256,192,53807,1,0,0:0:0:0:
109,192,53969,128,0,54293:0:0:0:0:
402,192,53969,1,0,0:0:0:0:
182,192,53969,1,0,0:0:0:0:
256,192,54131,1,0,0:0:0:0:
182,192,54293,128,0,54617:0:0:0:0:
402,192,54293,1,0,0:0:0:0:
36,192,54293,1,0,0:0:0:0:
329,192,54455,1,0,0:0:0:0:
36,192,54617,1,0,0:0:0:0:
402,192,54617,1,0,0:0:0:0:
256,192,54617,1,8,0:0:0:0:
109,192,54780,1,0,0:0:0:0:
256,192,54942,128,0,55266:0:0:0:0:
36,192,54942,1,0,0:0:0:0:
329,192,54942,1,0,0:0:0:0:
402,192,55104,1,0,0:0:0:0:
329,192,55266,1,0,0:0:0:0:
36,192,55266,1,0,0:0:0:0:
182,192,55266,1,8,0:0:0:0:
109,192,55347,1,0,0:0:0:0:
256,192,55428,1,0,0:0:0:0:
36,192,55509,1,0,0:0:0:0:
329,192,55590,128,0,55915:0:0:0:0:
402,192,55590,1,0,0:0:0:0:
182,192,55590,1,0,0:0:0:0:
109,192,55752,1,0,0:0:0:0:
36,192,55915,1,0,0:0:0:0:
402,192,55915,1,0,0:0:0:0:
182,192,55915,1,0,0:0:0:0:
256,192,56239,128,0,56563:0:0:0:0:
402,192,56239,128,0,58834:0:0:0:0:
36,192,56239,1,0,0:0:0:0:
475,192,56239,1,4,0:0:0:0:
109,192,56401,1,0,0:0:0:0:
475,192,56563,1,0,0:0:0:0:
36,192,56563,1,0,0:0:0:0:
182,192,56563,1,8,0:0:0:0:
329,192,56563,128,0,56888:0:0:0:0:
109,192,56725,1,0,0:0:0:0:
182,192,56888,128,0,57212:0:0:0:0:
36,192,56888,1,0,0:0:0:0:
329,192,57050,1,0,0:0:0:0:
36,192,57212,128,0,57536:0:0:0:0:
256,192,57212,1,8,0:0:0:0:
109,192,57212,1,0,0:0:0:0:
475,192,57212,1,0,0:0:0:0:
329,192,57374,1,0,0:0:0:0:
256,192,57536,1,0,0:0:0:0:
109,192,57536,1,0,0:0:0:0:
475,192,57698,1,0,0:0:0:0:
329,192,57861,1,0,0:0:0:0:
36,192,57861,1,0,0:0:0:0:
182,192,57861,1,8,0:0:0:0:
256,192,58023,1,0,0:0:0:0:
36,192,58185,1,0,0:0:0:0:
475,192,58185,1,0,0:0:0:0:
109,192,58347,1,0,0:0:0:0:
329,192,58509,1,8,0:0:0:0:
36,192,58509,1,0,0:0:0:0:
475,192,58509,1,0,0:0:0:0:
182,192,58590,1,0,0:0:0:0:
329,192,58671,1,0,0:0:0:0:
256,192,58752,1,0,0:0:0:0:
109,192,58834,128,0,61428:0:0:0:0:
36,192,58834,1,0,0:0:0:0:
182,192,58834,1,0,0:0:0:0:
475,192,58996,1,0,0:0:0:0:
402,192,59158,1,0,0:0:0:0:
36,192,59158,1,0,0:0:0:0:
182,192,59158,1,8,0:0:0:0:
256,192,59320,1,0,0:0:0:0:
329,192,59482,128,0,59807:0:0:0:0:
475,192,59482,1,0,0:0:0:0:
36,192,59482,1,0,0:0:0:0:
182,192,59644,1,0,0:0:0:0:
256,192,59807,1,8,0:0:0:0:
36,192,59807,1,0,0:0:0:0:
402,192,59807,1,0,0:0:0:0:
475,192,59969,1,0,0:0:0:0:
402,192,60131,128,0,60455:0:0:0:0:
182,192,60131,1,0,0:0:0:0:
36,192,60131,1,0,0:0:0:0:
329,192,60293,1,0,0:0:0:0:
256,192,60455,1,8,0:0:0:0:
36,192,60455,1,0,0:0:0:0:
475,192,60455,1,0,0:0:0:0:
329,192,60536,1,0,0:0:0:0:
182,192,60617,1,0,0:0:0:0:
256,192,60698,1,0,0:0:0:0:
475,192,60780,128,0,61104:0:0:0:0:
329,192,60780,1,0,0:0:0:0:
256,192,60942,1,0,0:0:0:0:
36,192,61104,1,0,0:0:0:0:
402,192,61104,1,0,0:0:0:0:
182,192,61104,1,8,0:0:0:0:
36,192,61428,128,0,61752:0:0:0:0:
402,192,61428,128,0,61590:0:0:0:0:
182,192,61590,128,0,61752:0:0:0:0:
329,192,61590,128,0,61752:0:0:0:0:
475,192,61752,128,0,62077:0:0:0:0:
109,192,61752,128,0,61915:0:0:0:0:
36,192,61915,128,0,62077:0:0:0:0:
256,192,61915,128,0,62077:0:0:0:0:
402,192,62077,128,0,62239:0:0:0:0:
182,192,62077,128,0,62239:0:0:0:0:
182,192,62401,128,0,62725:0:0:0:0:
36,192,62401,128,0,64023:0:0:0:0:
475,192,62401,128,0,62725:0:0:0:0:
329,192,62401,128,0,64023:0:0:0:0:
109,192,62725,1,0,0:0:0:0:
402,192,62725,1,0,0:0:0:0:
256,192,62888,1,0,0:0:0:0:
109,192,63050,1,0,0:0:0:0:
475,192,63050,1,0,0:0:0:0:
182,192,63050,1,8,0:0:0:0:
256,192,63212,1,0,0:0:0:0:
109,192,63374,1,0,0:0:0:0:
475,192,63374,1,0,0:0:0:0:
182,192,63536,1,0,0:0:0:0:
256,192,63698,1,8,0:0:0:0:
475,192,63698,1,0,0:0:0:0:
109,192,63698,1,0,0:0:0:0:
182,192,63861,1,0,0:0:0:0:
109,192,64023,128,0,66293:0:0:0:0:
402,192,64023,128,0,66293:0:0:0:0:
256,192,64023,128,0,64347:0:0:0:0:
182,192,64347,128,0,65158:0:0:0:0:
329,192,64347,128,8,65158:0:0:0:0:
36,192,64671,128,0,64834:0:0:0:0:
475,192,64671,128,0,65482:0:0:0:0:
36,192,64996,128,8,66293:0:0:0:0:
329,192,65320,128,0,65807:0:0:0:0:
182,192,65320,128,0,65807:0:0:0:0:
475,192,65644,128,8,66293:0:0:0:0:
182,192,65969,128,0,66293:0:0:0:0:
329,192,65969,128,0,66293:0:0:0:0:
256,192,66293,1,8,0:0:0:0:
182,192,66455,1,8,0:0:0:0:
329,192,66455,1,0,0:0:0:0:
402,192,66536,1,0,0:0:0:0:
109,192,66536,1,8,0:0:0:0:
329,192,66617,1,0,0:0:0:0:
36,192,66617,1,8,0:0:0:0:
182,192,66617,1,0,0:0:0:0:
475,192,66617,128,0,69212:0:0:0:0:
256,192,66780,1,0,0:0:0:0:
402,192,66780,1,0,0:0:0:0:
182,192,66942,1,8,0:0:0:0:
329,192,66942,1,0,0:0:0:0:
36,192,66942,1,0,0:0:0:0:
109,192,67104,1,0,0:0:0:0:
402,192,67104,1,0,0:0:0:0:
36,192,67266,1,0,0:0:0:0:
329,192,67266,1,0,0:0:0:0:
182,192,67428,1,0,0:0:0:0:
402,192,67428,1,0,0:0:0:0:
36,192,67590,1,8,0:0:0:0:
329,192,67590,1,0,0:0:0:0:
109,192,67590,1,0,0:0:0:0:
182,192,67752,1,0,0:0:0:0:
402,192,67752,1,0,0:0:0:0:
36,192,67915,1,0,0:0:0:0:
329,192,67915,1,0,0:0:0:0:
402,192,68077,1,0,0:0:0:0:
109,192,68077,1,0,0:0:0:0:
329,192,68239,1,0,0:0:0:0:
36,192,68239,1,8,0:0:0:0:
256,192,68239,1,0,0:0:0:0:
109,192,68401,1,0,0:0:0:0:
402,192,68401,1,0,0:0:0:0:
36,192,68563,1,0,0:0:0:0:
256,192,68563,1,0,0:0:0:0:
109,192,68725,1,0,0:0:0:0:
402,192,68725,1,0,0:0:0:0:
329,192,68888,1,0,0:0:0:0:
36,192,68888,1,8,0:0:0:0:
182,192,68888,1,0,0:0:0:0:
402,192,69050,1,0,0:0:0:0:
256,192,69050,1,0,0:0:0:0:
109,192,69212,128,0,71807:0:0:0:0:
36,192,69212,1,0,0:0:0:0:
329,192,69212,1,0,0:0:0:0:
182,192,69374,1,0,0:0:0:0:
402,192,69374,1,0,0:0:0:0:
329,192,69536,1,0,0:0:0:0:
475,192,69536,1,0,0:0:0:0:
36,192,69536,1,8,0:0:0:0:
182,192,69698,1,0,0:0:0:0:
256,192,69698,1,0,0:0:0:0:
475,192,69861,128,0,70185:0:0:0:0:
402,192,69861,1,0,0:0:0:0:
36,192,69861,1,0,0:0:0:0:
256,192,70023,1,0,0:0:0:0:
182,192,70023,1,0,0:0:0:0:
402,192,70185,1,0,0:0:0:0:
36,192,70185,1,0,0:0:0:0:
329,192,70185,1,8,0:0:0:0:
182,192,70347,1,0,0:0:0:0:
402,192,70509,128,0,70834:0:0:0:0:
36,192,70509,1,0,0:0:0:0:
329,192,70509,1,0,0:0:0:0:
256,192,70671,1,0,0:0:0:0:
182,192,70671,1,0,0:0:0:0:
36,192,70834,1,0,0:0:0:0:
475,192,70834,1,0,0:0:0:0:
329,192,70834,1,8,0:0:0:0:
402,192,70996,1,0,0:0:0:0:
182,192,70996,1,0,0:0:0:0:
329,192,71158,128,0,71482:0:0:0:0:
36,192,71158,1,0,0:0:0:0:
475,192,71158,1,0,0:0:0:0:
182,192,71320,1,0,0:0:0:0:
402,192,71320,1,0,0:0:0:0:
475,192,71482,1,0,0:0:0:0:
36,192,71482,1,8,0:0:0:0:
256,192,71644,1,0,0:0:0:0:
329,192,71644,1,0,0:0:0:0:
475,192,71807,128,0,72293:0:0:0:0:
36,192,71807,128,0,73104:0:0:0:0:
402,192,71807,1,0,0:0:0:0:
182,192,71807,1,0,0:0:0:0:
256,192,71969,1,0,0:0:0:0:
109,192,72131,1,8,0:0:0:0:
329,192,72131,1,0,0:0:0:0:
402,192,72131,1,0,0:0:0:0:
182,192,72293,1,0,0:0:0:0:
475,192,72455,128,0,73266:0:0:0:0:
329,192,72455,1,0,0:0:0:0:
109,192,72617,1,0,0:0:0:0:
402,192,72780,128,0,73590:0:0:0:0:
329,192,72780,1,0,0:0:0:0:
256,192,72780,1,8,0:0:0:0:
182,192,72942,1,0,0:0:0:0:
329,192,73104,128,0,73915:0:0:0:0:
109,192,73104,1,0,0:0:0:0:
256,192,73266,1,0,0:0:0:0:
475,192,73428,128,0,74239:0:0:0:0:
36,192,73428,1,0,0:0:0:0:
109,192,73428,1,8,0:0:0:0:
256,192,73590,1,0,0:0:0:0:
402,192,73752,128,0,74239:0:0:0:0:
36,192,73752,1,0,0:0:0:0:
109,192,73915,1,0,0:0:0:0:
329,192,74077,128,0,74888:0:0:0:0:
182,192,74077,1,8,0:0:0:0:
256,192,74077,1,0,0:0:0:0:
36,192,74239,1,0,0:0:0:0:
402,192,74401,128,0,74725:0:0:0:0:
475,192,74401,128,0,74563:0:0:0:0:
109,192,74401,1,0,0:0:0:0:
182,192,74563,1,0,0:0:0:0:
36,192,74725,1,0,0:0:0:0:
109,192,74725,1,8,0:0:0:0:
475,192,74725,128,0,75455:0:0:0:0:
182,192,74888,1,0,0:0:0:0:
402,192,74888,128,0,75455:0:0:0:0:
329,192,75050,128,0,75455:0:0:0:0:
109,192,75050,1,0,0:0:0:0:
256,192,75212,1,0,0:0:0:0:
36,192,75374,1,0,0:0:0:0:
109,192,75374,1,0,0:0:0:0:
182,192,75374,1,8,0:0:0:0:
402,192,75536,1,0,0:0:0:0:
329,192,75536,1,4,0:0:0:0:
475,192,75536,1,0,0:0:0:0:
36,192,75536,128,0,76347:0:0:0:0:
182,192,75698,1,0,0:0:0:0:
256,192,75698,1,0,0:0:0:0:
475,192,75861,1,0,0:0:0:0:
109,192,76023,1,0,0:0:0:0:
182,192,76023,1,8,0:0:0:0:
256,192,76023,1,0,0:0:0:0:
475,192,76185,1,0,0:0:0:0:
402,192,76185,1,0,0:0:0:0:
329,192,76185,1,0,0:0:0:0:
109,192,76347,128,0,76996:0:0:0:0:
256,192,76347,1,0,0:0:0:0:
182,192,76347,1,0,0:0:0:0:
329,192,76509,1,0,0:0:0:0:
475,192,76509,1,0,0:0:0:0:
329,192,76671,1,8,0:0:0:0:
475,192,76671,1,0,0:0:0:0:
182,192,76834,1,0,0:0:0:0:
475,192,76834,1,8,0:0:0:0:
256,192,76915,1,0,0:0:0:0:
402,192,76915,1,8,0:0:0:0:
182,192,76996,128,0,77158:0:0:0:0:
36,192,76996,128,0,77158:0:0:0:0:
475,192,76996,1,0,0:0:0:0:
329,192,76996,1,8,0:0:0:0:
402,192,77158,128,0,77320:0:0:0:0:
109,192,77158,128,0,77320:0:0:0:0:
329,192,77320,128,0,77644:0:0:0:0:
475,192,77320,128,0,77644:0:0:0:0:
36,192,77482,128,0,77644:0:0:0:0:
182,192,77482,128,0,77644:0:0:0:0:
36,192,77969,128,0,79266:0:0:0:0:
182,192,77969,128,0,79266:0:0:0:0:
475,192,77969,128,0,79266:0:0:0:0:
329,192,77969,128,0,79266:0:0:0:0:
109,192,79266,1,0,0:0:0:0:
402,192,79266,1,0,0:0:0:0:
256,192,79428,1,0,0:0:0:0:
109,192,79590,128,0,79752:0:0:0:0:
402,192,79590,128,0,79752:0:0:0:0:
182,192,79752,128,0,79915:0:0:0:0:
329,192,79752,128,0,79915:0:0:0:0:
36,192,79915,128,0,80239:0:0:0:0:
475,192,79915,128,0,80239:0:0:0:0:
182,192,80077,128,0,80239:0:0:0:0:
329,192,80077,128,0,80239:0:0:0:0:
36,192,80563,128,0,81536:0:0:0:0:
182,192,80563,128,0,81374:0:0:0:0:
329,192,80563,128,0,81374:0:0:0:0:
475,192,80563,128,0,81536:0:0:0:0:
256,192,80563,128,0,82185:0:0:0:0:
329,192,81536,1,0,0:0:0:0:
182,192,81536,1,0,0:0:0:0:
475,192,81698,1,0,0:0:0:0:
36,192,81698,1,0,0:0:0:0:
402,192,81861,128,0,82185:0:0:0:0:
109,192,81861,128,0,82185:0:0:0:0:
36,192,82023,128,0,82185:0:0:0:0:
475,192,82023,128,0,82185:0:0:0:0:
329,192,82185,128,0,83158:0:0:0:0:
182,192,82185,128,0,82509:0:0:0:0:
256,192,82347,1,0,0:0:0:0:
36,192,82509,1,0,0:0:0:0:
475,192,82509,1,0,0:0:0:0:
256,192,82671,1,0,0:0:0:0:
475,192,82834,1,0,0:0:0:0:
182,192,82834,1,0,0:0:0:0:
36,192,82996,1,0,0:0:0:0:
256,192,83077,1,0,0:0:0:0:
402,192,83158,1,0,0:0:0:0:
109,192,83158,1,0,0:0:0:0:
182,192,83158,1,0,0:0:0:0:
475,192,83158,1,0,0:0:0:0:
36,192,83320,128,0,83807:0:0:0:0:
475,192,83320,128,0,83807:0:0:0:0:
402,192,83320,1,0,0:0:0:0:
109,192,83320,1,0,0:0:0:0:
329,192,83320,1,0,0:0:0:0:
182,192,83320,1,0,0:0:0:0:
256,192,83482,1,0,0:0:0:0:
256,192,83644,1,0,0:0:0:0:
329,192,83807,1,0,0:0:0:0:
109,192,83807,1,0,0:0:0:0:
182,192,83807,1,0,0:0:0:0:
402,192,83807,1,0,0:0:0:0:
256,192,83969,128,0,84455:0:0:0:0:
182,192,83969,1,0,0:0:0:0:
329,192,83969,1,0,0:0:0:0:
402,192,83969,1,0,0:0:0:0:
109,192,83969,1,0,0:0:0:0:
36,192,84131,1,0,0:0:0:0:
475,192,84131,1,0,0:0:0:0:
109,192,84293,1,0,0:0:0:0:
402,192,84293,1,0,0:0:0:0:
36,192,84374,1,0,0:0:0:0:
475,192,84374,1,0,0:0:0:0:
402,192,84455,1,0,0:0:0:0:
109,192,84455,1,0,0:0:0:0:
256,192,84536,1,0,0:0:0:0:
402,192,84617,1,0,0:0:0:0:
109,192,84617,1,0,0:0:0:0:
36,192,84780,1,0,0:0:0:0:
475,192,84780,1,0,0:0:0:0:
329,192,84942,1,0,0:0:0:0:
182,192,84942,1,0,0:0:0:0:
109,192,85104,1,0,0:0:0:0:
402,192,85104,1,0,0:0:0:0:
256,192,85104,1,0,0:0:0:0:
329,192,85266,1,0,0:0:0:0:
182,192,85266,1,0,0:0:0:0:
256,192,85266,1,0,0:0:0:0:
109,192,85428,1,0,0:0:0:0:
402,192,85428,1,0,0:0:0:0:
256,192,85428,1,0,0:0:0:0:
475,192,85590,1,0,0:0:0:0:
36,192,85590,1,0,0:0:0:0:
256,192,85590,1,0,0:0:0:0:
402,192,85752,1,0,0:0:0:0:
256,192,85752,1,0,0:0:0:0:
109,192,85752,1,0,0:0:0:0:
182,192,85915,1,0,0:0:0:0:
256,192,85915,1,0,0:0:0:0:
329,192,85915,1,0,0:0:0:0:
256,192,86077,1,0,0:0:0:0:
402,192,86077,1,0,0:0:0:0:
109,192,86077,1,0,0:0:0:0:
475,192,86239,1,0,0:0:0:0:
36,192,86239,1,0,0:0:0:0:
256,192,86239,1,0,0:0:0:0:
109,192,86401,1,0,0:0:0:0:
256,192,86401,1,0,0:0:0:0:
402,192,86401,1,0,0:0:0:0:
182,192,86563,1,0,0:0:0:0:
329,192,86563,1,0,0:0:0:0:
256,192,86563,1,0,0:0:0:0:
109,192,86725,1,0,0:0:0:0:
402,192,86725,1,0,0:0:0:0:
256,192,86725,1,0,0:0:0:0:
36,192,86888,1,0,0:0:0:0:
475,192,86888,1,0,0:0:0:0:
256,192,86888,1,0,0:0:0:0:
109,192,87050,1,0,0:0:0:0:
402,192,87050,1,0,0:0:0:0:
256,192,87050,1,0,0:0:0:0:
109,192,87212,1,0,0:0:0:0:
256,192,87212,1,0,0:0:0:0:
402,192,87212,1,0,0:0:0:0:
